  0
SECTION
  2
HEADER
  9
$ACADVER
  1
AC1006
  9
$INSBASE
 10
63.356120
 20
135.881510
 30
0.0
  9
$EXTMIN
 10
63.356120
 20
135.881510
  9
$EXTMAX
 10
273.356120
 20
432.881510
  9
$LIMMIN
 10
63.356120
 20
135.881510
  9
$LIMMAX
 10
273.356120
 20
432.881510
  9
$VIEWCTR
 10
168.356120
 20
284.381510
  9
$VIEWSIZE
 40
297.000000
  9
$SNAPMODE
 70
     0
  9
$SNAPUNIT
 10
1.0
 20
1.0
  9
$SNAPBASE
 10
0.0
 20
0.0
  9
$SNAPANG
 50
0.0
  9
$SNAPSTYLE
 70
     0
  9
$SNAPISOPAIR
 70
     0
  9
$GRIDMODE
 70
     0
  9
$GRIDUNIT
 10
0.0
 20
0.0
  9
$ORTHOMODE
 70
     0
  9
$REGENMODE
 70
     1
  9
$FILLMODE
 70
     1
  9
$QTEXTMODE
 70
     0
  9
$DRAGMODE
 70
     2
  9
$LTSCALE
 40
15.000000
  9
$OSMODE
 70
     0
  9
$ATTMODE
 70
     1
  9
$TEXTSIZE
 40
0.2
  9
$TRACEWID
 40
0.05
  9
$TEXTSTYLE
  7
STANDARD
  9
$CLAYER
  8
CSLAYER3
  9
$CELTYPE
  6
BYLAYER
  9
$CECOLOR
 62
   256
  9
$DIMSCALE
 40
1.0
  9
$DIMASZ
 40
0.18
  9
$DIMEXO
 40
0.0625
  9
$DIMDLI
 40
0.38
  9
$DIMRND
 40
0.0
  9
$DIMDLE
 40
0.0
  9
$DIMEXE
 40
0.18
  9
$DIMTP
 40
0.0
  9
$DIMTM
 40
0.0
  9
$DIMTXT
 40
0.18
  9
$DIMCEN
 40
0.09
  9
$DIMTSZ
 40
0.0
  9
$DIMTOL
 70
     0
  9
$DIMLIM
 70
     0
  9
$DIMTIH
 70
     1
  9
$DIMTOH
 70
     1
  9
$DIMSE1
 70
     0
  9
$DIMSE2
 70
     0
  9
$DIMTAD
 70
     0
  9
$DIMZIN
 70
     0
  9
$DIMBLK
  1

  9
$LUNITS
 70
     2
  9
$LUPREC
 70
     4
  9
$AXISMODE
 70
     0
  9
$AXISUNIT
 10
0.0
 20
0.0
  9
$SKETCHINC
 40
0.1
  9
$FILLETRAD
 40
0.0
  9
$AUNITS
 70
     0
  9
$AUPREC
 70
     0
  9
$MENU
  1
ACAD
  9
$ELEVATION
 40
0.0
  9
$THICKNESS
 40
0.0
  9
$VIEWDIR
 10
0.0
 20
0.0
 30
1.0
  9
$LIMCHECK
 70
     0
  9
$BLIPMODE
 70
     1
  9
$CHAMFERA
 40
0.0
  9
$CHAMFERB
 40
0.0
  9
$FASTZOOM
 70
     1
  9
$SKPOLY
 70
     0
  9
$TDCREATE
 40
0.000000
  9
$TDUPDATE
 40
0.000000
  9
$TDINDWG
 40
0.0
  9
$TDUSRTIMER
 40
0.0
  9
$USRTIMER
 70
     1
  9
$ANGBASE
 50
0.0
  9
$ANGDIR
 70
     0
  9
$PDMODE
 70
     0
  9
$PDSIZE
 40
0.0
  9
$PLINEWID
 40
0.0
  9
$COORDS
 70
     0
  9
$USERI1
 70
     0
  9
$USERI2
 70
     0
  9
$USERI3
 70
     0
  9
$USERI4
 70
     0
  9
$USERI5
 70
     0
  9
$USERR1
 40
0.0
  9
$USERR2
 40
0.0
  9
$USERR3
 40
0.0
  9
$USERR4
 40
0.0
  9
$USERR5
 40
0.0
  0
ENDSEC
  0
SECTION
  2
TABLES
  0
TABLE
  2
LTYPE
 70
     9
  0
LTYPE
  2
CONTINUOUS
 70
    64
  3
Solid line
 72
    65
 73
     0
 40
0.0
  0
LTYPE
  2
DASHED
 70
    64
  3
__ __ __ __ __ __ __ __ __ __ __ __ __ __ __
 72
    65
 73
     2
 40
0.75
 49
0.5
 49
-0.25
  0
LTYPE
  2
HIDDEN
 70
    64
  3
_ _ _ _ _ _ _ _ _ _ _ _ _ _ _ _ _ _ _ _ _ _ _
 72
    65
 73
     2
 40
0.375
 49
0.25
 49
-0.125
  0
LTYPE
  2
DOT
 70
    64
  3
...............................................
 72
    65
 73
     2
 40
0.25
 49
0.0
 49
-0.25
  0
LTYPE
  2
DASHDOT
 70
    64
  3
__ . __ . __ . __ . __ . __ . __ . __ . __ . __
 72
    65
 73
     4
 40
1.0
 49
0.5
 49
-0.25
 49
0.0
 49
-0.25
  0
LTYPE
  2
DIVIDE
 70
    64
  3
__ . . __ . . __ . . __ . . __ . . __ . . __
 72
    65
 73
     6
 40
1.25
 49
0.5
 49
-0.25
 49
0.0
 49
-0.25
 49
0.0
 49
-0.25
  0
LTYPE
  2
CENTER
 70
    64
  3
____ _ ____ _ ____ _ ____ _ ____ _ ____ _ ____ 
 72
    65
 73
     4
 40
2.0
 49
1.25
 49
-0.25
 49
0.25
 49
-0.25
  0
LTYPE
  2
PHANTOM
 70
    64
  3
______  __  __  ______  __  __  ______  __  __ 
 72
    65
 73
     6
 40
2.5
 49
1.25
 49
-0.25
 49
0.25
 49
-0.25
 49
0.25
 49
-0.25
  0
LTYPE
  2
BORDER
 70
    64
  3
__ __ . __ __ . __ __ . __ __ . __ __ . __ __ .
 72
    65
 73
     6
 40
1.75
 49
0.5
 49
-0.25
 49
0.5
 49
-0.25
 49
0.0
 49
-0.25
  0
ENDTAB
  0
TABLE
  2
LAYER
 70
    16
  0
LAYER
  2
CSLAYER1
 70
    64
 62
     7
  6
CONTINUOUS
  0
LAYER
  2
CSLAYER2
 70
    64
 62
     7
  6
CONTINUOUS
  0
LAYER
  2
CSLAYER3
 70
    64
 62
     7
  6
CONTINUOUS
  0
LAYER
  2
CSLAYER4
 70
    64
 62
     7
  6
CONTINUOUS
  0
LAYER
  2
CSLAYER5
 70
    64
 62
     7
  6
CONTINUOUS
  0
LAYER
  2
CSLAYER6
 70
    64
 62
     7
  6
CONTINUOUS
  0
LAYER
  2
CSLAYER7
 70
    64
 62
     7
  6
CONTINUOUS
  0
LAYER
  2
CSLAYER8
 70
    64
 62
     7
  6
CONTINUOUS
  0
LAYER
  2
CSLAYER9
 70
    64
 62
     7
  6
CONTINUOUS
  0
LAYER
  2
CSLAYER10
 70
    64
 62
     7
  6
CONTINUOUS
  0
LAYER
  2
CSLAYER11
 70
    64
 62
     7
  6
CONTINUOUS
  0
LAYER
  2
CSLAYER12
 70
    64
 62
     7
  6
CONTINUOUS
  0
LAYER
  2
CSLAYER13
 70
    64
 62
     7
  6
CONTINUOUS
  0
LAYER
  2
CSLAYER14
 70
    64
 62
     7
  6
CONTINUOUS
  0
LAYER
  2
CSLAYER15
 70
    64
 62
     7
  6
CONTINUOUS
  0
LAYER
  2
CSLAYER16
 70
    64
 62
     7
  6
CONTINUOUS
  0
ENDTAB
  0
TABLE
  2
STYLE
 70
     1
  0
STYLE
  2
SX_FONT
 70
     0
 40
1.0
 41
1.0
 50
0.0
 71
     0
 42
1.0
  3
monotxt
  4
bigfont
  0
ENDTAB
  0
TABLE
  2
VIEW
 70
     0
  0
ENDTAB
  0
ENDSEC
  0
SECTION
  2
BLOCKS
  0
BLOCK
  8
CSLAYER1
  2
*D0000
 70
    65
 10
0.0
 20
0.0
 30
0.0
  0
LINE
  8
CSLAYER1
  6
CONTINUOUS
 62
     7
 10
45.179688
 20
200.234375
 11
45.179688
 21
205.155123
  0
LINE
  8
CSLAYER1
  6
CONTINUOUS
 62
     7
 10
135.179688
 20
200.234375
 11
135.179688
 21
205.155123
  0
LINE
  8
CSLAYER1
  6
CONTINUOUS
 62
     7
 10
45.179688
 20
204.155123
 11
135.179688
 21
204.155123
  0
LINE
  8
CSLAYER1
  6
CONTINUOUS
 62
     7
 10
45.179688
 20
204.155123
 11
49.043391
 21
205.190399
  0
LINE
  8
CSLAYER1
  6
CONTINUOUS
 62
     7
 10
45.179688
 20
204.155123
 11
49.043391
 21
203.119847
  0
LINE
  8
CSLAYER1
  6
CONTINUOUS
 62
     7
 10
135.179688
 20
204.155123
 11
131.315984
 21
205.190399
  0
LINE
  8
CSLAYER1
  6
CONTINUOUS
 62
     7
 10
135.179688
 20
204.155123
 11
131.315984
 21
203.119847
  0
TEXT
  8
CSLAYER1
 62
     7
 10
87.179688
 20
205.155121
 40
4.000000
 41
0.900000
  1
90
 50
0.000000
 51
0.000000
  7
SX_FONT
 72
     5
 11
93.179688
 21
205.155121
  0
ENDBLK
  8
0
  0
BLOCK
  8
CSLAYER1
  2
*D0001
 70
    65
 10
0.0
 20
0.0
 30
0.0
  0
LINE
  8
CSLAYER1
  6
CONTINUOUS
 62
     7
 10
141.179688
 20
109.234375
 11
146.668138
 21
109.234375
  0
LINE
  8
CSLAYER1
  6
CONTINUOUS
 62
     7
 10
141.179688
 20
194.234375
 11
146.668138
 21
194.234375
  0
LINE
  8
CSLAYER1
  6
CONTINUOUS
 62
     7
 10
145.668138
 20
109.234375
 11
145.668138
 21
194.234375
  0
LINE
  8
CSLAYER1
  6
CONTINUOUS
 62
     7
 10
145.668138
 20
109.234375
 11
144.632862
 21
113.098078
  0
LINE
  8
CSLAYER1
  6
CONTINUOUS
 62
     7
 10
145.668138
 20
109.234375
 11
146.703414
 21
113.098078
  0
LINE
  8
CSLAYER1
  6
CONTINUOUS
 62
     7
 10
145.668138
 20
194.234375
 11
144.632862
 21
190.370672
  0
LINE
  8
CSLAYER1
  6
CONTINUOUS
 62
     7
 10
145.668138
 20
194.234375
 11
146.703414
 21
190.370672
  0
TEXT
  8
CSLAYER1
 62
     7
 10
150.765472
 20
148.482651
 40
4.000000
 41
0.900000
  1
85
 50
90.000000
 51
0.000000
  7
SX_FONT
 72
     5
 11
150.765472
 21
154.482651
  0
ENDBLK
  8
0
  0
ENDSEC
  0
SECTION
  2
ENTITIES
  0
ARC
  8
CSLAYER2
  6
CONTINUOUS
 62
     7
 10
123.179688
 20
172.234375
 40
22.000000
 50
90.000000
 51
141.316061
  0
ARC
  8
CSLAYER2
  6
CONTINUOUS
 62
     7
 10
70.879109
 20
214.110974
 40
45.000000
 50
273.287203
 51
321.316061
  0
LINE
  8
CSLAYER2
  6
CONTINUOUS
 62
     7
 10
123.179688
 20
194.234375
 11
135.179688
 21
194.234375
  0
LINE
  8
CSLAYER2
  6
CONTINUOUS
 62
     7
 10
135.179688
 20
194.234375
 11
135.179688
 21
109.234375
  0
LINE
  8
CSLAYER2
  6
CONTINUOUS
 62
     7
 10
135.179688
 20
109.234375
 11
75.179688
 21
109.234375
  0
ARC
  8
CSLAYER2
  6
CONTINUOUS
 62
     7
 10
75.179688
 20
139.234375
 40
30.000000
 50
93.287203
 51
180.000000
  0
ARC
  8
CSLAYER2
  6
CONTINUOUS
 62
     7
 10
75.179688
 20
139.234375
 40
30.000000
 50
180.000000
 51
270.000000
  0
TEXT
  8
CSLAYER1
 62
     7
 10
45.070313
 20
62.546875
 40
10.000000
 41
0.630000
  1
FM-4001
 50
0.000000
 51
0.000000
  7
SX_FONT
 72
     5
 11
87.070313
 21
62.546875
  0
TEXT
  8
CSLAYER1
 62
     7
 10
101.979561
 20
63.034424
 40
10.000000
 41
0.642857
  1
90x85
 50
0.000000
 51
0.000000
  7
SX_FONT
 72
     5
 11
131.979561
 21
63.034424
  0
TEXT
  8
CSLAYER1
 62
     7
 10
46.499863
 20
51.457714
 40
5.000000
 41
0.612766
  1
カタログ Vol. 1  P80
 50
0.000000
 51
0.000000
  7
SX_FONT
 72
     5
 11
94.499863
 21
51.457714
  0
DIMENSION
  8
CSLAYER1
 62
     7
  2
*D0000
 10
135.179688
 20
204.155123
 11
90.179688
 21
205.155121
 13
45.179688
 23
199.234375
 14
135.179688
 24
199.234375
 70
1
  0
DIMENSION
  8
CSLAYER1
 62
     7
  2
*D0001
 10
145.668138
 20
194.234375
 11
150.765472
 21
151.482651
 13
140.179688
 23
109.234375
 14
140.179688
 24
194.234375
 50
90.000000
 70
1
  0
TEXT
  8
CSLAYER1
 62
     7
 10
46.471373
 20
42.204959
 40
4.960742
 41
0.729057
  1
ホ%%dケットカタロク゛ Vol. 1 P55
 50
0.000000
 51
0.000000
  7
SX_FONT
 72
     5
 11
121.215730
 21
42.204959
  0
ENDSEC
  0
EOF
