  0
SECTION
  2
HEADER
  9
$ACADVER
  1
AC1006
  9
$INSBASE
 10
83.426554
 20
192.729167
 30
0.0
  9
$EXTMIN
 10
83.426554
 20
192.729167
  9
$EXTMAX
 10
293.426554
 20
489.729167
  9
$LIMMIN
 10
83.426554
 20
192.729167
  9
$LIMMAX
 10
293.426554
 20
489.729167
  9
$VIEWCTR
 10
188.426554
 20
341.229167
  9
$VIEWSIZE
 40
297.000000
  9
$SNAPMODE
 70
     0
  9
$SNAPUNIT
 10
1.0
 20
1.0
  9
$SNAPBASE
 10
0.0
 20
0.0
  9
$SNAPANG
 50
0.0
  9
$SNAPSTYLE
 70
     0
  9
$SNAPISOPAIR
 70
     0
  9
$GRIDMODE
 70
     0
  9
$GRIDUNIT
 10
0.0
 20
0.0
  9
$ORTHOMODE
 70
     0
  9
$REGENMODE
 70
     1
  9
$FILLMODE
 70
     1
  9
$QTEXTMODE
 70
     0
  9
$DRAGMODE
 70
     2
  9
$LTSCALE
 40
15.000000
  9
$OSMODE
 70
     0
  9
$ATTMODE
 70
     1
  9
$TEXTSIZE
 40
0.2
  9
$TRACEWID
 40
0.05
  9
$TEXTSTYLE
  7
STANDARD
  9
$CLAYER
  8
CSLAYER3
  9
$CELTYPE
  6
BYLAYER
  9
$CECOLOR
 62
   256
  9
$DIMSCALE
 40
1.0
  9
$DIMASZ
 40
0.18
  9
$DIMEXO
 40
0.0625
  9
$DIMDLI
 40
0.38
  9
$DIMRND
 40
0.0
  9
$DIMDLE
 40
0.0
  9
$DIMEXE
 40
0.18
  9
$DIMTP
 40
0.0
  9
$DIMTM
 40
0.0
  9
$DIMTXT
 40
0.18
  9
$DIMCEN
 40
0.09
  9
$DIMTSZ
 40
0.0
  9
$DIMTOL
 70
     0
  9
$DIMLIM
 70
     0
  9
$DIMTIH
 70
     1
  9
$DIMTOH
 70
     1
  9
$DIMSE1
 70
     0
  9
$DIMSE2
 70
     0
  9
$DIMTAD
 70
     0
  9
$DIMZIN
 70
     0
  9
$DIMBLK
  1

  9
$LUNITS
 70
     2
  9
$LUPREC
 70
     4
  9
$AXISMODE
 70
     0
  9
$AXISUNIT
 10
0.0
 20
0.0
  9
$SKETCHINC
 40
0.1
  9
$FILLETRAD
 40
0.0
  9
$AUNITS
 70
     0
  9
$AUPREC
 70
     0
  9
$MENU
  1
ACAD
  9
$ELEVATION
 40
0.0
  9
$THICKNESS
 40
0.0
  9
$VIEWDIR
 10
0.0
 20
0.0
 30
1.0
  9
$LIMCHECK
 70
     0
  9
$BLIPMODE
 70
     1
  9
$CHAMFERA
 40
0.0
  9
$CHAMFERB
 40
0.0
  9
$FASTZOOM
 70
     1
  9
$SKPOLY
 70
     0
  9
$TDCREATE
 40
0.000000
  9
$TDUPDATE
 40
0.000000
  9
$TDINDWG
 40
0.0
  9
$TDUSRTIMER
 40
0.0
  9
$USRTIMER
 70
     1
  9
$ANGBASE
 50
0.0
  9
$ANGDIR
 70
     0
  9
$PDMODE
 70
     0
  9
$PDSIZE
 40
0.0
  9
$PLINEWID
 40
0.0
  9
$COORDS
 70
     0
  9
$USERI1
 70
     0
  9
$USERI2
 70
     0
  9
$USERI3
 70
     0
  9
$USERI4
 70
     0
  9
$USERI5
 70
     0
  9
$USERR1
 40
0.0
  9
$USERR2
 40
0.0
  9
$USERR3
 40
0.0
  9
$USERR4
 40
0.0
  9
$USERR5
 40
0.0
  0
ENDSEC
  0
SECTION
  2
TABLES
  0
TABLE
  2
LTYPE
 70
     9
  0
LTYPE
  2
CONTINUOUS
 70
    64
  3
Solid line
 72
    65
 73
     0
 40
0.0
  0
LTYPE
  2
DASHED
 70
    64
  3
__ __ __ __ __ __ __ __ __ __ __ __ __ __ __
 72
    65
 73
     2
 40
0.75
 49
0.5
 49
-0.25
  0
LTYPE
  2
HIDDEN
 70
    64
  3
_ _ _ _ _ _ _ _ _ _ _ _ _ _ _ _ _ _ _ _ _ _ _
 72
    65
 73
     2
 40
0.375
 49
0.25
 49
-0.125
  0
LTYPE
  2
DOT
 70
    64
  3
...............................................
 72
    65
 73
     2
 40
0.25
 49
0.0
 49
-0.25
  0
LTYPE
  2
DASHDOT
 70
    64
  3
__ . __ . __ . __ . __ . __ . __ . __ . __ . __
 72
    65
 73
     4
 40
1.0
 49
0.5
 49
-0.25
 49
0.0
 49
-0.25
  0
LTYPE
  2
DIVIDE
 70
    64
  3
__ . . __ . . __ . . __ . . __ . . __ . . __
 72
    65
 73
     6
 40
1.25
 49
0.5
 49
-0.25
 49
0.0
 49
-0.25
 49
0.0
 49
-0.25
  0
LTYPE
  2
CENTER
 70
    64
  3
____ _ ____ _ ____ _ ____ _ ____ _ ____ _ ____ 
 72
    65
 73
     4
 40
2.0
 49
1.25
 49
-0.25
 49
0.25
 49
-0.25
  0
LTYPE
  2
PHANTOM
 70
    64
  3
______  __  __  ______  __  __  ______  __  __ 
 72
    65
 73
     6
 40
2.5
 49
1.25
 49
-0.25
 49
0.25
 49
-0.25
 49
0.25
 49
-0.25
  0
LTYPE
  2
BORDER
 70
    64
  3
__ __ . __ __ . __ __ . __ __ . __ __ . __ __ .
 72
    65
 73
     6
 40
1.75
 49
0.5
 49
-0.25
 49
0.5
 49
-0.25
 49
0.0
 49
-0.25
  0
ENDTAB
  0
TABLE
  2
LAYER
 70
    16
  0
LAYER
  2
CSLAYER1
 70
    64
 62
     7
  6
CONTINUOUS
  0
LAYER
  2
CSLAYER2
 70
    64
 62
     7
  6
CONTINUOUS
  0
LAYER
  2
CSLAYER3
 70
    64
 62
     7
  6
CONTINUOUS
  0
LAYER
  2
CSLAYER4
 70
    64
 62
     7
  6
CONTINUOUS
  0
LAYER
  2
CSLAYER5
 70
    64
 62
     7
  6
CONTINUOUS
  0
LAYER
  2
CSLAYER6
 70
    64
 62
     7
  6
CONTINUOUS
  0
LAYER
  2
CSLAYER7
 70
    64
 62
     7
  6
CONTINUOUS
  0
LAYER
  2
CSLAYER8
 70
    64
 62
     7
  6
CONTINUOUS
  0
LAYER
  2
CSLAYER9
 70
    64
 62
     7
  6
CONTINUOUS
  0
LAYER
  2
CSLAYER10
 70
    64
 62
     7
  6
CONTINUOUS
  0
LAYER
  2
CSLAYER11
 70
    64
 62
     7
  6
CONTINUOUS
  0
LAYER
  2
CSLAYER12
 70
    64
 62
     7
  6
CONTINUOUS
  0
LAYER
  2
CSLAYER13
 70
    64
 62
     7
  6
CONTINUOUS
  0
LAYER
  2
CSLAYER14
 70
    64
 62
     7
  6
CONTINUOUS
  0
LAYER
  2
CSLAYER15
 70
    64
 62
     7
  6
CONTINUOUS
  0
LAYER
  2
CSLAYER16
 70
    64
 62
     7
  6
CONTINUOUS
  0
ENDTAB
  0
TABLE
  2
STYLE
 70
     1
  0
STYLE
  2
SX_FONT
 70
     0
 40
1.0
 41
1.0
 50
0.0
 71
     0
 42
1.0
  3
monotxt
  4
bigfont
  0
ENDTAB
  0
TABLE
  2
VIEW
 70
     0
  0
ENDTAB
  0
ENDSEC
  0
SECTION
  2
BLOCKS
  0
BLOCK
  8
CSLAYER1
  2
*D0000
 70
    65
 10
0.0
 20
0.0
 30
0.0
  0
LINE
  8
CSLAYER1
  6
CONTINUOUS
 62
     7
 10
66.951497
 20
215.297201
 11
66.951497
 21
221.297201
  0
LINE
  8
CSLAYER1
  6
CONTINUOUS
 62
     7
 10
81.951497
 20
215.297201
 11
81.951497
 21
221.297201
  0
LINE
  8
CSLAYER1
  6
CONTINUOUS
 62
     7
 10
66.951497
 20
220.297201
 11
81.951497
 21
220.297201
  0
LINE
  8
CSLAYER1
  6
CONTINUOUS
 62
     7
 10
66.951497
 20
220.297201
 11
70.815201
 21
221.332477
  0
LINE
  8
CSLAYER1
  6
CONTINUOUS
 62
     7
 10
66.951497
 20
220.297201
 11
70.815201
 21
219.261924
  0
LINE
  8
CSLAYER1
  6
CONTINUOUS
 62
     7
 10
81.951497
 20
220.297201
 11
78.087794
 21
221.332477
  0
LINE
  8
CSLAYER1
  6
CONTINUOUS
 62
     7
 10
81.951497
 20
220.297201
 11
78.087794
 21
219.261924
  0
TEXT
  8
CSLAYER1
 62
     7
 10
71.451500
 20
221.297211
 40
4.000000
 41
0.900000
  1
15
 50
0.000000
 51
0.000000
  7
SX_FONT
 72
     5
 11
77.451500
 21
221.297211
  0
ENDBLK
  8
0
  0
BLOCK
  8
CSLAYER1
  2
*D0001
 70
    65
 10
0.0
 20
0.0
 30
0.0
  0
LINE
  8
CSLAYER1
  6
CONTINUOUS
 62
     7
 10
87.125936
 20
120.018473
 11
93.125936
 21
120.018473
  0
LINE
  8
CSLAYER1
  6
CONTINUOUS
 62
     7
 10
87.125936
 20
210.018473
 11
93.125936
 21
210.018473
  0
LINE
  8
CSLAYER1
  6
CONTINUOUS
 62
     7
 10
92.125936
 20
120.018473
 11
92.125936
 21
210.018473
  0
LINE
  8
CSLAYER1
  6
CONTINUOUS
 62
     7
 10
92.125936
 20
120.018473
 11
91.090660
 21
123.882177
  0
LINE
  8
CSLAYER1
  6
CONTINUOUS
 62
     7
 10
92.125936
 20
120.018473
 11
93.161212
 21
123.882177
  0
LINE
  8
CSLAYER1
  6
CONTINUOUS
 62
     7
 10
92.125936
 20
210.018473
 11
91.090660
 21
206.154770
  0
LINE
  8
CSLAYER1
  6
CONTINUOUS
 62
     7
 10
92.125936
 20
210.018473
 11
93.161212
 21
206.154770
  0
TEXT
  8
CSLAYER1
 62
     7
 10
97.558800
 20
161.933762
 40
4.000000
 41
0.900000
  1
90
 50
90.000000
 51
0.000000
  7
SX_FONT
 72
     5
 11
97.558800
 21
167.933762
  0
ENDBLK
  8
0
  0
ENDSEC
  0
SECTION
  2
ENTITIES
  0
ARC
  8
CSLAYER2
  6
CONTINUOUS
 62
     7
 10
77.951497
 20
206.018473
 40
4.000000
 50
90.000000
 51
180.000000
  0
ARC
  8
CSLAYER2
  6
CONTINUOUS
 62
     7
 10
70.951497
 20
206.018473
 40
3.000000
 50
270.000000
 51
360.000000
  0
LINE
  8
CSLAYER2
  6
CONTINUOUS
 62
     7
 10
70.951497
 20
203.018473
 11
70.951497
 21
202.119849
  0
LINE
  8
CSLAYER2
  6
CONTINUOUS
 62
     7
 10
77.951497
 20
210.018473
 11
81.951497
 21
210.018473
  0
LINE
  8
CSLAYER2
  6
CONTINUOUS
 62
     7
 10
81.951497
 20
210.018473
 11
81.951497
 21
120.018473
  0
LINE
  8
CSLAYER2
  6
CONTINUOUS
 62
     7
 10
81.951497
 20
120.018473
 11
66.951497
 21
120.018473
  0
LINE
  8
CSLAYER2
  6
CONTINUOUS
 62
     7
 10
66.951497
 20
120.018473
 11
66.951497
 21
165.018473
  0
LINE
  8
CSLAYER2
  6
CONTINUOUS
 62
     7
 10
69.136024
 20
190.753370
 11
68.923205
 21
190.249751
  0
LINE
  8
CSLAYER2
  6
CONTINUOUS
 62
     7
 10
68.923205
 20
170.787196
 11
69.136024
 21
170.283577
  0
ARC
  8
CSLAYER2
  6
CONTINUOUS
 62
     7
 10
91.951497
 20
180.518473
 40
25.000000
 50
157.092091
 51
180.000000
  0
ARC
  8
CSLAYER2
  6
CONTINUOUS
 62
     7
 10
91.951497
 20
180.518473
 40
25.000000
 50
180.000000
 51
202.907909
  0
ARC
  8
CSLAYER2
  6
CONTINUOUS
 62
     7
 10
70.951497
 20
198.119849
 40
4.000000
 50
90.000000
 51
180.000000
  0
ARC
  8
CSLAYER2
  6
CONTINUOUS
 62
     7
 10
70.951497
 20
198.119849
 40
4.000000
 50
180.000000
 51
226.567463
  0
ARC
  8
CSLAYER2
  6
CONTINUOUS
 62
     7
 10
65.451497
 20
168.726573
 40
4.000000
 50
-67.975687
 51
0.000000
  0
ARC
  8
CSLAYER2
  6
CONTINUOUS
 62
     7
 10
65.451497
 20
168.726573
 40
4.000000
 50
0.000000
 51
22.907909
  0
ARC
  8
CSLAYER2
  6
CONTINUOUS
 62
     7
 10
65.451497
 20
192.310374
 40
4.000000
 50
0.000000
 51
46.567463
  0
ARC
  8
CSLAYER2
  6
CONTINUOUS
 62
     7
 10
65.451497
 20
192.310374
 40
4.000000
 50
-22.907909
 51
0.000000
  0
TEXT
  8
CSLAYER1
 62
     7
 10
65.983994
 20
72.470245
 40
12.000000
 41
0.700000
  1
FM-3018
 50
0.000000
 51
0.000000
  7
SX_FONT
 72
     5
 11
121.983994
 21
72.470245
  0
DIMENSION
  8
CSLAYER1
 62
     7
  2
*D0000
 10
81.951497
 20
220.297201
 11
74.451500
 21
221.297211
 13
66.951497
 23
214.297201
 14
81.951497
 24
214.297201
 70
1
  0
DIMENSION
  8
CSLAYER1
 62
     7
  2
*D0001
 10
92.125936
 20
210.018473
 11
97.558800
 21
164.933762
 13
86.125936
 23
120.018473
 14
86.125936
 24
210.018473
 50
90.000000
 70
1
  0
TEXT
  8
CSLAYER1
 62
     7
 10
67.396255
 20
57.409845
 40
5.547002
 41
0.589931
  1
カタログ Vol. 1  P79
 50
0.000000
 51
0.000000
  7
SX_FONT
 72
     5
 11
118.663040
 21
57.409845
  0
TEXT
  8
CSLAYER1
 62
     7
 10
139.969055
 20
72.421333
 40
12.000000
 41
0.714286
  1
15x90
 50
0.000000
 51
0.000000
  7
SX_FONT
 72
     5
 11
179.969055
 21
72.421333
  0
TEXT
  8
CSLAYER1
 62
     7
 10
67.188215
 20
47.213347
 40
4.960742
 41
0.729057
  1
ホ%%dケットカタロク゛ Vol. 1 P54
 50
0.000000
 51
0.000000
  7
SX_FONT
 72
     5
 11
141.932573
 21
47.213347
  0
ENDSEC
  0
EOF
